#TITLE:悲怆奏鸣曲第三乐章 病毒;
#SUBTITLE:Beethoven Piano Sonata No.8 3rd mov.;
#ARTIST:贝多芬;
#TITLETRANSLIT:;
#SUBTITLETRANSLIT:;
#ARTISTTRANSLIT:;
#CREDIT:;
#BANNER: _logo.jpg;
#BACKGROUND: _bg.jpg;
#LYRICSPATH:;
#CDTITLE:Lan.png;
#MUSIC: .mp3;
#OFFSET:-0.040;
#SAMPLESTART:100.000;
#SAMPLELENGTH:12.000;
#SELECTABLE:YES;
#BPMS:0.000=156.000;
#STOPS:;
#BGCHANGES:;
// cache tags:
#FIRSTBEAT:4.000;
#LASTBEAT:560.000;
#SONGFILENAME:Songs/lan sky/virus/ .sm;
#HASMUSIC:1;
#HASBANNER:1;
#MUSICLENGTH:217.773;
// end cache tags

//---------------dance-single - sky----------------
#NOTES:
     dance-single:
     sky:
     Hard:
     10:
     1.000,1.000,1.000,0.354,0.785,1281.000,427.000,77.000,0.000,258.000:

0000
0000
0000
0000
,
0110
0000
0000
0110
0000
0000
0000
0000
,
0000
0000
0000
0000
,
0110
0000
0000
0110
0000
0000
0000
0000
,
0000
0000
0000
0000
,
0110
1000
1000
0011
1000
1000
0001
0100
,
0100
0010
0100
0100
0001
1000
1000
0001
,
0110
1000
1000
0101
1000
1000
0010
1000
,
1001
0100
1001
1000
0011
1100
0110
1101
,
2011
0010
0101
0000
3210
0010
1001
0000
,
2310
0000
0010
0000
0101
0000
0000
0000
3011
0000
0100
0010
0001
1000
0100
0010
,
1001
0110
1001
0110
,
1012
0000
0100
0000
1000
0000
1103
0010
,
1012
1000
0100
0000
0103
0100
1001
0100
,
1021
0001
1000
0000
1031
0001
1010
0001
,
1210
0010
1001
0000
1302
1000
0110
0000
,
2013
0000
0010
0000
0101
0000
0000
0000
3101
0000
0010
0001
1010
0000
0101
0000
,
1012
1000
0010
0000
1203
1000
0001
0000
,
1302
0000
1000
0000
0100
0000
0000
0000
1103
0000
0010
0100
0010
1000
0100
0010
,
1001
0110
1001
0110
,
2101
0000
0011
0000
0101
0000
3101
0010
,
1021
1000
0101
0000
0131
0100
1001
0100
,
1201
0001
1010
0000
1310
1000
0110
0001
,
2110
0000
0100
0001
3120
0000
1100
0001
,
2130
0000
0000
0000
0101
0000
0000
0000
3011
0000
0100
0010
1001
0010
1000
0010
,
1001
0110
1100
0110
0011
1100
0011
0110
,
1001
0011
0110
1100
0110
1100
0011
0110
,
1001
0110
1100
0110
0011
1100
0101
1010
,
1001
0011
0110
1100
1100
0110
0011
0110
,
1010
1100
0101
0110
1001
0100
1001
0010
,
0101
0110
1100
0101
1010
0011
1100
0110
,
1001
1100
0110
0011
1001
0010
1001
0110
,
1010
0000
0011
0000
1100
0000
0101
0000
1010
0000
0000
0000
0000
0000
0010
0100
,
1001
0000
0000
0000
0000
0000
0001
0010
0100
0000
0010
0000
0001
0000
1000
0000
,
0100
0010
1000
0000
0001
0000
0100
0000
0010
0000
0100
1000
0010
0100
0001
0100
,
0001
0000
0000
0000
0000
0000
1000
0100
0001
0000
0010
0000
0100
0000
1000
0000
,
0001
1000
0001
0100
0010
1000
0100
1000
0010
1000
0001
0100
0010
0100
1000
0100
,
0001
0000
0000
0000
0000
0000
0010
0001
0100
0001
1000
0010
0100
0001
1000
0010
,
0001
0000
0010
0001
0100
0000
0001
0000
1000
0000
0001
0000
0100
0000
0001
0000
,
1000
0000
0000
0000
0000
0000
0000
0000
0000
1000
0100
0010
0001
0000
0000
1000
0000
0000
0010
0000
0000
0100
0000
0000
,
1000
0100
0001
0010
1000
0100
0010
0001
0001
0010
0100
1000
0100
0001
0010
1000
,
0101
0010
0101
0010
1001
0100
1001
0100
,
1001
0010
1001
0010
1100
0010
1100
0010
,
1101
0110
1100
0110
1011
0101
1011
0101
,
1110
0111
1110
0111
1110
0001
1000
0100
,
1112
0000
1010
0100
2013
0000
0101
0010
,
3102
0000
0000
0000
1100
0000
0000
0000
1013
0000
0001
0010
1000
0100
0010
0001
,
1100
0011
0110
1001
,
2101
0000
0001
0000
0011
0000
3010
0001
,
1012
0000
0000
0000
1103
0000
0100
0010
,
1021
0000
0000
0000
0130
0000
0100
0010
,
0201
0000
1000
0001
1302
0000
1000
0100
,
2013
0000
0000
0000
0101
0000
0000
0000
3001
0000
0100
0010
0001
0001
0010
0010
,
1101
0000
0010
1100
0000
0001
1010
0000
,
1000
0000
0001
0000
0100
0000
0001
0100
0010
1000
0010
0100
0001
0000
0100
0100
,
1011
0000
0100
0000
0010
0000
1100
0000
0001
0100
0001
1000
0011
0000
0100
0010
,
0100
0000
1000
0000
0001
0000
1000
0100
0001
0010
1000
1000
0001
0010
0001
0010
,
1101
0000
0001
1100
0001
0100
1000
0011
,
0000
0000
0110
0000
0001
0000
0100
0000
1000
0100
0001
1000
0001
0000
0010
0010
,
1100
0000
0010
0000
0001
0000
1100
0000
0010
1000
0001
0100
0001
0000
0110
0000
,
1000
0000
1000
0000
0001
0000
1000
0100
0001
0010
1000
0010
0001
0010
1000
0100
,
0011
0000
1000
0011
1000
0100
1011
0000
,
1000
0000
0010
0000
1100
0000
0001
0000
1000
0010
0100
0001
1000
0000
0010
0000
,
1001
0010
1100
0011
1000
0001
1101
0010
,
1000
0000
0000
0000
1001
0000
0000
0000
1000
0001
0100
0001
1000
0000
0010
0000
,
1101
0000
1001
0110
1000
0100
1010
0001
,
1000
0000
0011
0000
1000
0000
0000
0000
1000
0001
0100
0010
1000
0000
0100
0000
,
1011
0000
1001
0011
1000
0010
1000
0101
,
1000
0000
0100
0010
1001
0010
0100
1000
1011
0000
0000
0000
0000
0000
0000
0000
,
0001
0001
0100
1000
0010
0010
0100
0100
0001
0001
1000
1000
0001
0010
0100
1000
,
0010
0010
1000
1000
0100
0010
0001
1000
0010
1000
0100
1000
0001
0010
0100
1000
,
0010
0010
0100
0100
0010
0001
0010
0100
0001
0001
1000
0010
1000
0100
0001
0100
,
0010
0010
0100
0001
1000
0001
0010
0100
0010
0100
0010
0001
1000
1000
1000
1000
,
0010
0010
0010
0010
1000
0100
0010
0100
0001
1000
0100
0010
0001
0010
0100
1000
,
0100
0100
1000
0100
0001
0010
0100
1000
0010
0100
0010
1000
0001
0010
0100
0010
,
0001
0001
1000
0100
0010
1000
0001
0100
0001
0001
0010
0010
0100
0100
1000
1000
,
0100
0100
0010
0010
1000
1000
0001
0001
0100
0100
0010
1000
0001
0000
0000
0000
,
0111
0000
0100
1000
0010
0000
1001
0000
0110
0000
1000
0000
0001
0010
0100
1000
,
0111
0000
1000
0000
0100
1000
0011
0100
0011
1000
0100
0010
0001
0010
0100
1000
,
0111
0000
1000
0000
0010
0001
1010
0100
1010
0000
0001
0010
1000
0100
0001
0100
,
1011
0000
0100
1000
0010
0001
0110
1000
0110
1000
0100
0001
1000
0000
0000
0000
,
1110
0000
0100
0010
0001
1000
0101
0010
0101
1000
0010
0100
0001
0010
0100
0010
,
1101
0000
0100
1000
0001
0010
1100
0010
1100
0001
1000
0010
0100
0001
1000
0010
,
1101
0000
0100
0010
0001
0100
1001
0100
1001
0001
0100
0100
0010
0010
1000
1000
,
0010
0010
0001
0010
1000
1000
0001
0010
1100
0010
1000
0010
1001
0000
0000
0000
,
1101
0000
0100
0010
1101
0000
0001
0000
1011
0000
0100
0000
1011
0100
0010
0001
,
1110
0000
0001
0000
1110
0001
0100
0010
1101
0010
0100
0010
1101
0010
0100
1000
,
0111
0000
1000
0000
0111
1000
0010
0100
1011
0000
0010
0100
1011
0100
0001
0010
,
1101
0000
0001
0010
1101
0010
0100
1000
0111
1000
0010
1000
0111
0000
0000
0000
,
1101
0000
0100
0010
1101
0010
0100
1000
0111
1000
0100
1000
0111
1000
0100
0001
,
1110
0000
0010
0001
1110
0001
0010
0100
1011
0100
0010
0100
1011
0100
1000
0010
,
1101
0000
0001
0010
1101
0010
1000
0100
1011
0100
0010
0100
1011
0100
1000
0100
,
1011
1000
0100
0100
1011
1000
0010
0100
1011
1000
0100
0010
1001
0000
0000
0000
,
1011
1000
0100
0100
1011
1000
0010
0100
1011
1000
0100
0010
1001
0000
0000
0000
,
0000
1002
2010
0123
,
3101
0100
1001
0100
0101
1100
0101
1001
,
2131
0010
0101
0001
0110
0101
0011
0101
,
3112
1000
1010
0100
1100
1010
0110
1100
,
1213
0010
1001
0010
1010
1001
0011
1010
,
2301
0010
0101
0001
0112
0100
0210
0010
,
3013
1000
1001
0010
1001
1010
0011
1001
,
1312
0100
0110
1000
2110
0100
0210
0010
,
3013
0000
0001
0000
1010
0000
0001
0000
1001
0000
1000
0010
1301
0000
0100
0010
,
1002
0000
0000
0000
0000
0000
0010
0100
1003
0000
0010
0000
0100
0000
0001
0000
,
0010
0100
0001
0000
1000
0000
0010
0000
0100
0000
0010
0001
0100
0010
1000
0010
,
1000
0000
0000
0000
0000
0000
0100
0010
0001
0000
0100
0000
1000
0000
0001
0000
,
0100
0010
1000
0010
0100
0001
0010
0001
0100
0001
1000
0010
0100
0010
0001
0100
,
1000
0000
0000
0000
0000
0000
0100
1000
0010
1000
0001
0100
0010
1000
0001
0100
,
1000
0000
0100
1000
0010
0000
1000
0000
0001
0000
1000
0000
0010
0000
1000
0000
,
0100
0000
0000
0000
0000
0000
0000
0000
0000
1000
0100
0010
0001
0000
0000
1000
0000
0000
0010
0000
0000
0100
0000
0000
,
0010
0001
0100
1000
0100
0010
1000
0100
0001
0010
0100
1000
0001
0010
0100
0010
,
1102
0000
0100
1000
0110
1000
0010
1000
0110
1000
0100
1000
0010
1010
0100
0010
,
2103
0010
0100
0001
0110
0001
0010
0001
0110
0001
0100
0001
0110
0001
0010
0010
,
3101
0010
0100
1000
0011
0100
0010
0100
1001
0010
0001
0100
0011
0100
1000
0100
,
1011
0100
1000
0010
0101
1000
0100
0010
1001
0010
0100
1000
0101
0010
0100
1000
,
0110
0001
1010
0001
1100
0001
0110
0001
1100
0001
1010
0001
1100
0001
0100
0001
,
0110
1000
0011
1000
0110
1000
0011
1000
0101
1000
0011
1000
0101
1000
0010
1000
,
0110
1000
0100
0001
0110
1000
0100
0010
1101
0010
0100
1000
0011
0100
1000
0010
,
1101
0010
0100
0001
0110
1001
0110
1001
0110
0000
0000
0000
0000
0000
0000
0000
,
1101
1101
1011
1011
,
1112
1000
1010
0000
2113
0100
0101
0000
,
3112
0000
0010
0000
1010
0000
0000
0000
1103
0000
0010
0100
0010
0001
0010
0100
,
1011
1110
0111
1101
,
2011
0000
0101
0000
0011
0000
0110
0011
,
0102
0100
0110
0000
3213
0010
1001
0010
,
1002
1000
1010
0000
1323
1000
0101
1000
,
2031
0001
0110
0001
0102
0100
0010
0100
,
0213
0000
0010
0000
0011
0000
0000
0000
3301
0000
0010
1000
0101
1000
0010
0100
,
0012
1110
1203
1011
,
1320
0000
0000
0000
1101
0000
0000
0000
0131
0000
1001
0100
1010
0001
1000
0100
,
1012
1210
1023
2301
,
0132
0000
3110
0000
1000
0000
1010
0100
,
1020
1000
1100
0000
2133
0100
0011
0100
,
0012
0010
0110
0000
3213
0010
1001
0010
,
1321
0000
1001
0100
2131
0000
0101
0010
,
3112
0000
1100
0000
1013
0000
1201
1020
,
1002
0000
1000
0000
1333
0000
2100
0210
,
0021
0000
0001
0000
3331
0000
1010
1001
,
2110
0000
0101
0010
3102
0000
1010
0100
,
2103
0000
0100
0000
0001
0000
0001
0000
3110
0001
1010
0001
0110
1001
0010
1000
,
1101
0000
0000
0000
;
